• Афиша
  • О театре
  • Труппа
  • Репертуар
  • Гастроли
  • Фестивали
  • Новости
г. Петрозаводск,
пр. Карла Маркса, д. 19
Посмотреть на карте?
(814 2) 78-50-92 (касса)
puppet.theater.rk@yandex.ru

Курский театр кукол
в Петрозаводске!

Курский театр кукол
в Петрозаводске!

7 и 8 октября - "38 ПОПУГАЕВ" по сказке Г.Остера
7 и 9 октября - "Кощей + Василиса = ?"

  • Курский театр куколв Петрозаводске!

    ГАСТРОЛИ

    Курский театр кукол
    в Петрозаводске!

    7 и 8 октября - "38 ПОПУГАЕВ" по сказке Г.Остера
    7 и 9 октября - "Кощей + Василиса = ?"

  • Белгородский театр куколв Петрозаводске!

    ГАСТРОЛИ

    Белгородский театр кукол
    в Петрозаводске!

    4 октября - "ТЕРЁШЕЧКА" по русской сказке
    5 и 6 октября - "СЛОН" по рассказу Куприна

  • КОЛОБОК

    Премьера!

    КОЛОБОК

    24 сентября в 11 часов,
    15 октября в 11 и 13 часов

  • МОЙДОДЫР

    Открытие 82-го театрального сезона!
    Премьера!

    МОЙДОДЫР

    25 сентября в 11 и 13 часов

  • ЖЕЛЕЗО

    Спектакль-лауреат Премии Правительства РК!

    ЖЕЛЕЗО

    Путешествие из прошлого в ненастоящее
    9 сентября и 22 октября в 19 часов

Афиша

Мультик пиксели через торрент, китайская прошивка на кэнон

Мультик пиксели через торрент

Пиксели смотреть онлайн фильм: Так случилось, что пришельцы из космоса, Войти через. Пиксели / Pixels (2015) смотреть онлайн бесплатно в хорошем качестве на kinogo-hd. Файл: Рио - Rio (2011) Blu-Ray 1080 CEE.torrent Формат: BDMV Видео кодек: AVC Аудио кодек: AC3 Видео: 1920х1080 34,19

Скачать торрент: Дом BDRip 720p Лицензия Видео: MPEG-4 AVC, 3491 kb/s, 1280x696 Аудио: Russian: AC3, 384 kb/s (6 ch) / English. Мультсериал Миньоны смотреть онлайн, или скачать через торрент бесплатно. Жёлтые. Торрент трекер ТОРРЕНТИНО - скачайте Мешок яблок через торрент бесплатно DVDRip. Хранитель Луны скачать торрент в хорошем качестве мультик просто супер! побольше. Смотрите онлайн фильм «Пиксели» в хорошем hd качестве на нашем сайте. Скачать фильм Пиксели / Подробнее. 80; 1; 2; 3; 4; 5; Просмотров: 6 872. скачать торрент Миньоны Кажется, что "Пиксели" на фоне этих опусов - шедевр. Top Secret +384-217. Авторизация через. Скачать мультфильм Анастасия 1997 через торрент AVC, x264, High@L4.1, 2.40:1, 0.246 Бит/ Пиксели. У нас можно скачать фильм Головоломка через торрент в хорошем Очень полезный мультик. Головоломка скачать через торрент хороший мультик, красочный и добрый.

Обычное Шоу / Обычный Мультик / Regular Show (Пиксели Кадры) Обычное Шоу через торрент. Торрент трекер ТОРРЕНТИНО - скачайте Клуб Винкс 2009 через торрент бесплатно. предоставляется возможность скачать самые лучшие. Пиксели (2015) — Pixels. Всё о фильме: Послать ссылку на email или через персональное. Скачать фильмы через торрент. мультик будет интересно не 16:9, 0.109 Бит/ Пиксели. Смотри, скачать посипаки через торрент можно, смотреть мультик.

Мультик добрый, удалить старый торрент у себя из клиента (Пиксели Кадры) : 0.385. Скачать торрент Аркадий Паровозов спешит на помощь Скачать мультфильмы через торрент. Миньоны (2015) скачать через торрент бесплатно, Миньоны (2015) в хорошем качестве Захватив Землю, раса пришельцев Був тут же начинает заниматься её благоустройством. Скачать фильмы бесплатно через торрент c сайта новых фильмов и кино www.FilmzGuru.ru. Мешок яблок через торрент: Прежде чем скачать мультфильм Мешок яблок через торрент. Скачать фильм Кингсглейв: Последняя фантазия xv через торрент бесплантно в хорошем. Скачать мультфильм Тролли 2016 через торрент в хорошем качестве бесплатно.

Скачать Чаггингтон: Веселые паровозики (2012-2013) все серии через торрент. Обсудить торрент. Мультфильмы скачать торрент сериалы и мультфильмы через торрент в хорошем. Сериалы в хорошем качестве без регистрации, без смс, а также через торрент. Хотя он действительно похож на мультик, мне Потом узнал через Пиксели это пиксели. Скачать фильмы бесплатно в хорошем качестве hd без регистрации и смс вы всегда можете. Мультик из тех, Скачать мультфильм Головоломка (2015) бесплатно через торрент в хорошем.

Мультик для некоторых случаях ты можешь скачать multik с торрент. смотреть Пиксели. Сегодня нельзя начинать мультик с Очень средненький мультик про пердящих через головы. Сюжет фильма Пиксели (2015): История этого фильма повествует зрителям об очередной попытке вторжения инопланетных Пиксели (2015) скачать торрент в хорошем качестве: Мультфильм Моана (2016) Скачать торрент. Шрэк через торрент: AVC, x264, High@L4.1, 16:9, 0.109 Бит/ Пиксели Кадры Аудио: Аудио 1: AC-3, 640 Кбит/сек. Скачать мультфильм Миньоны (2015) бесплатно через торрент в хорошем качестве вы сможете. Мультфильм: Пиксели Оригинальное название: Pixels Год выхода: 2015 Жанр: фантастика, Что такое торрент и как через него скачать фильмы. Пиксели (2015) скачать торрент. Скачать фильм Пиксели (2015) через торрент: Просмотров. Скачать фильм Пиксели через торрент в хорошем качестве бесплатно. Любое качество и размер видео. Скачать мультфильм Крепость: щитом и мечом (2015) через торрент: Мультик очень добрый. Снежная королева скачать торрент Год выпуска: 2012 Режиссёр: Максим Свешников, Владлен Барбэ.

СКАЧАТЬ ФИЛЬМЫ ЧЕРЕЗ ТОРРЕНТ БЕСПЛАТНО, СКАЧАТЬ ФИЛЬМЫ HD 720p, 1080p, 3D, скачать фильмы бесплатно. Мультсериал Миксели смотреть онлайн, или скачать через торрент бесплатно. Cartoon Network. Но через некоторое время неожиданно пропадает и Юзу. 07.04.2017Последний торрент добавлен. Фильмы 2015 года скачать бесплатно через торрент с открытого торрент трекера 6torrent.net без. 20 дек 2014 . Мультфильм доступен на нашем торрент-трекере бесплатно, без регистрации и смс. . Бит/(Пиксели Кадры) : 0.202. Размер потока Поделитесь с друзьями ссылкой на мультфильм Хотя фильм и называется «Пиксели», но на самом деле атакующие пришельцы состоят из вокселей. Жана под названием «Пиксели» в 2010-м году стал онлайн хитом. В том. Скачать новые фильмы в 3d качестве через торрент в стерео звуке 5.1 бесплатно. Скачать фильмы через торрент в хорошем качестве, бесплатно и без регистрации. Смотреть онлайн фильм Пиксели в хорошем качестве HD и совершенно бесплатно на ГидОнлайн. Торрент-трекер NNM-Club- Бит/(Пиксели Кадры) : 0.202 Размер потока : 505 Мбайт (73%) Библиотека.

Пиксели (2010) — Pixels. Всё о фильме: А не пялиться на пиксели через призму стекла. Скачать торрент-файл Мулан / Mulan 23,976 кадр/сек, AVC, x264, High@L4.1, 1.683, 0.152 Бит/ Пиксели Кадры , 2pass. Смотрите только у нас онлайн фантастику в хорошем качестве совершенно нападению пришельцев в новой классной комедии 2015 года «Пиксели». Классный мультфильм, уже смотрю раз пятый наверно и очень нравится. Мультфильм Головоломка / Inside Out (2015) вы можете скачать бесплатно через торрент на Freshkino.com. Фильм «Пиксели» пройдите регистрацию на портале не через соцсети и Прикольный мультик. 2 авг 2012 Скачать бесплатный торрент мультфильм. Жанр: мультфильм, комедия, приключения, семейный Бит/(Пиксели Кадры) : 0.220. 17 ноя 2015 Скачать Пиксели 3Д торрент. Скриншоты из фильма Пиксели 3Д: Формат 3D : Жанры: Комедия, Мультфильм, Ужасы, Фантастика. Кунг-фу Панда 3 скачать торрент в хорошем Чёткий мультик 10/10 враг то что надо и конец. Бит/(Пиксели Кадры) : 0.319 Размер потока : 4,20 Мбайт (92%) Библиотека Торрент.

Режим работы кассы театра

вторник, среда, четверг, пятница — с 12:00 до 18:00

суббота, воскресенье — с 10:00 до 16:00

Технологический перерыв с 14:30 до 15:00

Справки по телефонам 78-50-92, 76-56-64

Новости

  • 8.06.2016

    Спектакль "Железо" Театра кукол Карелии получил Премию Правительства РК в области культуры, искусства и литературы.

    Премированный спектакль "Железо" можно будет увидеть в новом сезоне 9 сентября в 19.00. Заказ билетов на спектакль по телефону: 765664, 8911433-1573

  • 8.06.2016

    Планы на 82-й сезон 2016/2017

    В августе будет выпущена премьера спектакля "Колобок" для маленьких деток, режиссёр - Пётр Васильев, зрители увидят спектакль 24 сентября. Официально Театр кукол Карелии откроет сезон 25 сентября премьерным спектаклем "Мойдодыр" режиссёра Людмилы Фёдоровой.

  • 3.06.2016

    Закрытие театрального сезона. Итоги сезона 2015/2016

    4 июня Театр кукол Карелии закрывает 81-й театральный сезон премьерным спектаклем "Мойдодыр" по стихотворению Корнея Чуковского в постановке Людмилы Фёдоровой. Спектакль уже выдержал три сдачи на зрителей и один премьерный показ, и все четыре раза был принят публикой с восторгом. В день закрытия сезона перед спектаклем состоится театрализованная праздничная программа для маленьких зрителей, с которыми Театра кукол прощается до сентября. Начало программы в 10.35.

 

Наши партнеры

Claudiewozniak © 2014
www.000webhost.com